№5 - Советский фанк



Микс DJ SoULviet (Питер) можно скачать здесь

kursk.me/uploads/mp3/djsoULviet.mp3

14 комментариев

гуд стафф
наши руки не для скуки! впервые слышу источник
  • аватар Frost
  • +1
а треклсита нет?
Где нашёл?
  • аватар Frost
  • +1
а на сайте где оригинал лежит, на форуме точнее
  • аватар ololo
  • +1
Я и не допёр там глянуть, Глеб прямую ссылку давал
  • аватар Frost
  • +2
Tracklist:
1) Lev Leshenko «Lubov ne vinovata»
2) Maria Kodrianu «Rude-Paparude»
3) Pesniari «Rushniki»
4) Anatoli Korolev «Neprimetnnaya Krasota»
5) Samozveti «U nas molodih»
6) Valeri Obodzinski «Lubimaya»
7) Maria Kodrianu «U odinokih topolei»
8) Pesniari «Krik Ptizi»
9) Zvezda i smert Hoakina Murietti «???»
10) Zvezda i smert Hoakina Murietti «Zoloto» (soULviet edit)
11) G. Garanian «Fiery River» (soULviet edit)
12) Alla Pugacheva «Vse sili daje prilagaya»
13) Lev Leshenko «Nam ne jit drug bez druga»
14) Brazaitene «Serdze lubit doljno» (soULviet edit)
15) ??? «Ti Tanzui so mnoi»
16) Vesiolie Rebiata «Nikogda ne poveru»
17) Siabri «Spatkanie s daunei viasnoi»
  • аватар Frost
  • +2
вот cue
PERFORMER «Tengiz»
TITLE «Soviet Soul Mix»
FILE «djsoULviet.mp3» MP3
TRACK 01 AUDIO
TITLE «Lubov ne vinovata»
PERFORMER «Lev Leshenko»
INDEX 01 00:00:00
TRACK 02 AUDIO
PERFORMER «Maria Kodrianu»
TITLE «Rude-Paparude»
INDEX 01 03:20:00
TRACK 03 AUDIO
PERFORMER «Pesniari»
TITLE «Rushniki»
INDEX 01 06:21:00
TRACK 04 AUDIO
PERFORMER «Anatoli Korolev»
TITLE «Neprimetnnaya Krasota»
INDEX 01 09:44:00
TRACK 05 AUDIO
PERFORMER «Samozveti»
TITLE «U nas molodih»
INDEX 01 12:39:00
TRACK 06 AUDIO
PERFORMER «Valeri Obodzinski»
TITLE «Lubimaya»
INDEX 01 14:34:50
TRACK 07 AUDIO
PERFORMER «Maria Kodrianu»
TITLE «U odinokih topolei»
INDEX 01 18:27:00
TRACK 08 AUDIO
PERFORMER «Pesniari»
TITLE «Krik Ptizi»
INDEX 01 21:05:00
TRACK 09 AUDIO
PERFORMER «Aleksey Rybnikov»
TITLE «Zvezda i smert Hoakina Murietti»
INDEX 01 26:53:00
TRACK 10 AUDIO
PERFORMER «Aleksey Rybnikov»
TITLE «Zvezda i smert Hoakina Murietti — Zoloto (soULviet edit)»
INDEX 01 28:08:00
TRACK 11 AUDIO
PERFORMER «G. Garanian»
TITLE «Fiery River (soULviet edit)»
INDEX 01 29:52:00
TRACK 12 AUDIO
PERFORMER «Alla Pugacheva»
TITLE «Vse sili daje prilagaya»
INDEX 01 31:36:00
TRACK 13 AUDIO
PERFORMER «Lev Leshenko»
TITLE «Nam ne jit drug bez druga»
INDEX 01 34:03:50
TRACK 14 AUDIO
PERFORMER «Brazaitene»
TITLE «Serdze lubit doljno (soULviet edit)»
INDEX 01 37:54:00
TRACK 15 AUDIO
PERFORMER «Unknown»
TITLE «Ti Tanzui so mnoi»
INDEX 01 41:49:00
TRACK 16 AUDIO
PERFORMER «Vesiolie Rebiata»
TITLE «Nikogda ne poveru»
INDEX 01 46:01:00
TRACK 17 AUDIO
PERFORMER «Siabri»
TITLE «Spatkanie s daunei viasnoi»
INDEX 01 50:24:65
чё-та я не понял, как эту ссыль на cue пользовать
а правда как? это ж замечательная мкзыка!
но в моно её совсем как-то печально…
  • аватар ololo
  • +1
Скопируй содержимое в файл и сохрани с расширением .cue в ту же папку что и мп3. И тогда сможешь записать диск с разбивкой по трекам или прсто поделить один файл мп3 на отдельные песни.

В то время большая часть релизов была в моно, а то, что в стерео — не особо от моно отличалось.
я скопировал в блокнот,
вставляю этот .cue в проигрыватель — треклист есть, а он не играет)
  • аватар ololo
  • +1
Это не плей-лист, это файл для разрезания микса на мелкие кусочки.
нет, ну правда. треклист в плеере есть, а не играет, ну что же делать!?!?
а еще у плеера наушник один сломался — теперь и правда моно)
  • аватар Frost
  • +1
круть… Спасибо за микс!!!

Чтобы оставлять комментарии, нужно или зарегистрироваться.